<?xml version="1.0" standalone="no"?>
<!DOCTYPE svg PUBLIC "-//W3C//DTD SVG 1.1//EN" "http://www.w3.org/Graphics/SVG/1.1/DTD/svg11.dtd">
<svg xmlns="http://www.w3.org/2000/svg">
  <defs>
    <font id="PressStart2P" horiz-adv-x="1000">
      <font-face font-family="Press Start 2P" units-per-em="1000" panose-1="0 0 5 0 0 0 0 0 0 0" ascent="1000" descent="0" alphabetic="0" />
      <glyph unicode=" " glyph-name="space" horiz-adv-x="1000" />
      <glyph unicode="!" glyph-name="exclam" horiz-adv-x="1000" d="M250,375v625H625V625H500V375H250Zm0-250V250H500V125H250Z" />
      <glyph unicode="&quot;" glyph-name="quotedbl" horiz-adv-x="1000" d="M125,625v375H375V625H125Zm375,0v375H750V625H500Z" />
      <glyph unicode="#" glyph-name="numbersign" horiz-adv-x="1000" d="M125,125V250H0V375H125V750H0V875H125v125H375V875H500v125H750V875H875V750H750V375H875V250H750V125H500V250H375V125H125ZM375,375H500V750H375V375Z" />
      <glyph unicode="$" glyph-name="dollar" horiz-adv-x="1000" d="M375,125V250H0V375H375V500H125V625H0V750H125V875H375v125H500V875H750V750H500V625H750V500H875V375H750V250H500V125H375ZM250,625H375V750H250V625ZM500,375H625V500H500V375Z" />
      <glyph unicode="%" glyph-name="percent" horiz-adv-x="1000" d="M250,875H125v125H375V750H250V875Zm625,125V875H750v125H875ZM250,625H0V875H125V750H250V625ZM625,875H750V750H625V875ZM500,750H625V625H500V750ZM375,625H500V500H375V625ZM250,500H375V375H250V500Zm375,0H875V250H750V375H625V500ZM125,375H250V250H125V375ZM625,250H750V125H500V375H625V250ZM0,250H125V125H0V250Z" />
      <glyph unicode="&amp;" glyph-name="ampersand" horiz-adv-x="1000" d="M625,375H750V250H875V125H125V250H0V500H125V625H0V875H125v125H500V875H625V625H500V500H625V375ZM250,625H375V875H250V625ZM500,375H375V500H250V250H500V375ZM875,500V375H750V500H875Z" />
      <glyph unicode="&apos;" glyph-name="quotesingle" horiz-adv-x="1000" d="M250,625v375H500V625H250Z" />
      <glyph unicode="(" glyph-name="parenleft" horiz-adv-x="1000" d="M500,125V250H375V375H250V750H375V875H500v125H750V875H625V750H500V375H625V250H750V125H500Z" />
      <glyph unicode=")" glyph-name="parenright" horiz-adv-x="1000" d="M125,125V250H250V375H375V750H250V875H125v125H375V875H500V750H625V375H500V250H375V125H125Z" />
      <glyph unicode="*" glyph-name="asterisk" horiz-adv-x="1000" d="M125,250V375H250V500H0V625H250V750H125V875H375V750H500V875H750V750H625V625H875V500H625V375H750V250H500V375H375V250H125Z" />
      <glyph unicode="+" glyph-name="plus" horiz-adv-x="1000" d="M375,250V500H125V625H375V875H625V625H875V500H625V250H375Z" />
      <glyph unicode="," glyph-name="comma" horiz-adv-x="1000" d="M125,0V125H250V375H500V125H375V0H125Z" />
      <glyph unicode="-" glyph-name="hyphen" horiz-adv-x="1000" d="M125,500V625H875V500H125Z" />
      <glyph unicode="." glyph-name="period" horiz-adv-x="1000" d="M250,125V375H500V125H250Z" />
      <glyph unicode="/" glyph-name="slash" horiz-adv-x="1000" d="M875,1000V875H750v125H875ZM625,875H750V750H625V875ZM500,750H625V625H500V750ZM375,625H500V500H375V625ZM250,500H375V375H250V500ZM125,375H250V250H125V375ZM0,250H125V125H0V250Z" />
      <glyph unicode="0" glyph-name="zero" horiz-adv-x="1000" d="M250,125V250H125V375H0V750H125V875H250v125H625V875H750V750H875V375H750V250H625V125H250ZM375,250H625V750H500V875H250V375H375V250Z" />
      <glyph unicode="1" glyph-name="one" horiz-adv-x="1000" d="M125,125V250H375V750H250V875H375v125H625V250H875V125H125Z" />
      <glyph unicode="2" glyph-name="two" horiz-adv-x="1000" d="M0,125V375H125V500H250V625H500V750H625V875H250V750H0V875H125v125H750V875H875V625H750V500H625V375H375V250H875V125H0Z" />
      <glyph unicode="3" glyph-name="three" horiz-adv-x="1000" d="M125,125V250H0V375H250V250H625V500H250V625H375V750H500V875H125v125H875V875H750V750H625V625H750V500H875V250H750V125H125Z" />
      <glyph unicode="4" glyph-name="four" horiz-adv-x="1000" d="M500,125V375H0V625H125V750H250V875H375v125H750V500H875V375H750V125H500ZM250,500H500V750H375V625H250V500Z" />
      <glyph unicode="5" glyph-name="five" horiz-adv-x="1000" d="M125,125V250H0V375H250V250H625V625H0v375H750V875H250V750H750V625H875V250H750V125H125Z" />
      <glyph unicode="6" glyph-name="six" horiz-adv-x="1000" d="M125,125V250H0V750H125V875H250v125H750V875H375V750H250V625H750V500H875V250H750V125H125ZM250,250H625V500H250V250Z" />
      <glyph unicode="7" glyph-name="seven" horiz-adv-x="1000" d="M250,125V500H375V625H500V750H625V875H250V750H0v250H875V750H750V625H625V500H500V125H250Z" />
      <glyph unicode="8" glyph-name="eight" horiz-adv-x="1000" d="M125,125V250H0V500H125V625H0V875H125v125H625V875H750V625H625V500H875V250H750V125H125ZM375,625H625V875H250V750H375V625ZM125,250H625V375H375V500H125V250Z" />
      <glyph unicode="9" glyph-name="nine" horiz-adv-x="1000" d="M125,125V250H500V375H625V500H125V625H0V875H125v125H750V875H875V375H750V250H625V125H125ZM250,625H625V875H250V625Z" />
      <glyph unicode=":" glyph-name="colon" horiz-adv-x="1000" d="M250,625V875H500V625H250Zm0-375V500H500V250H250Z" />
      <glyph unicode=";" glyph-name="semicolon" horiz-adv-x="1000" d="M250,625V875H500V625H250ZM125,125V250H250V500H500V250H375V125H125Z" />
      <glyph unicode="&lt;" glyph-name="less" horiz-adv-x="1000" d="M500,125V250H375V375H250V500H125V625H250V750H375V875H500v125H750V875H625V750H500V625H375V500H500V375H625V250H750V125H500Z" />
      <glyph unicode="=" glyph-name="equal" horiz-adv-x="1000" d="M0,625V750H875V625H0ZM0,375V500H875V375H0Z" />
      <glyph unicode="&gt;" glyph-name="greater" horiz-adv-x="1000" d="M125,125V250H250V375H375V500H500V625H375V750H250V875H125v125H375V875H500V750H625V625H750V500H625V375H500V250H375V125H125Z" />
      <glyph unicode="?" glyph-name="question" horiz-adv-x="1000" d="M250,375V500H500V625H625V750H250V625H0V875H125v125H750V875H875V625H750V500H625V375H250Zm0-250V250H625V125H250Z" />
      <glyph unicode="@" glyph-name="at" horiz-adv-x="1000" d="M750,1000V875H125v125H750ZM0,875H125V250H0V875Zm875,0V375H250V750H625V500H750V875H875ZM500,625H375V500H500V625ZM125,125V250H750V125H125Z" />
      <glyph unicode="A" glyph-name="A" horiz-adv-x="1000" d="M0,125V750H125V875H250v125H625V875H750V750H875V125H625V375H250V125H0ZM250,500H625V750H500V875H375V750H250V500Z" />
      <glyph unicode="B" glyph-name="B" horiz-adv-x="1000" d="M0,125v875H750V875H875V625H750V500H875V250H750V125H0ZM250,625H625V875H250V625Zm0-375H625V500H250V250Z" />
      <glyph unicode="C" glyph-name="C" horiz-adv-x="1000" d="M250,125V250H125V375H0V750H125V875H250v125H750V875H875V750H625V875H375V750H250V375H375V250H625V375H875V250H750V125H250Z" />
      <glyph unicode="D" glyph-name="D" horiz-adv-x="1000" d="M0,125v875H625V875H750V750H875V375H750V250H625V125H0ZM250,250H500V375H625V750H500V875H250V250Z" />
      <glyph unicode="E" glyph-name="E" horiz-adv-x="1000" d="M0,125v875H875V875H250V625H750V500H250V250H875V125H0Z" />
      <glyph unicode="F" glyph-name="F" horiz-adv-x="1000" d="M0,125v875H875V875H250V625H750V500H250V125H0Z" />
      <glyph unicode="G" glyph-name="G" horiz-adv-x="1000" d="M250,125V250H125V375H0V750H125V875H250v125H875V875H375V750H250V375H375V250H625V500H500V625H875V125H250Z" />
      <glyph unicode="H" glyph-name="H" horiz-adv-x="1000" d="M0,125v875H250V625H625v375H875V125H625V500H250V125H0Z" />
      <glyph unicode="I" glyph-name="I" horiz-adv-x="1000" d="M125,125V250H375V875H125v125H875V875H625V250H875V125H125Z" />
      <glyph unicode="J" glyph-name="J" horiz-adv-x="1000" d="M125,125V250H0V375H250V250H625v750H875V250H750V125H125Z" />
      <glyph unicode="K" glyph-name="K" horiz-adv-x="1000" d="M0,125v875H250V625H375V750H500V875H625v125H875V875H750V750H625V625H500V500H625V375H750V250H875V125H500V250H375V375H250V125H0Z" />
      <glyph unicode="L" glyph-name="L" horiz-adv-x="1000" d="M125,125v875H375V250H875V125H125Z" />
      <glyph unicode="M" glyph-name="M" horiz-adv-x="1000" d="M0,125v875H250V875H375V750H500V875H625v125H875V125H625V625H500V375H375V625H250V125H0Z" />
      <glyph unicode="N" glyph-name="N" horiz-adv-x="1000" d="M0,125v875H250V875H375V750H500V625H625v375H875V125H625V375H500V500H375V625H250V125H0Z" />
      <glyph unicode="O" glyph-name="O" horiz-adv-x="1000" d="M125,125V250H0V875H125v125H750V875H875V250H750V125H125ZM250,250H625V875H250V250Z" />
      <glyph unicode="P" glyph-name="P" horiz-adv-x="1000" d="M0,125v875H750V875H875V500H750V375H250V125H0ZM250,500H625V875H250V500Z" />
      <glyph unicode="Q" glyph-name="Q" horiz-adv-x="1000" d="M875,875V375H750V250H625V125H125V250H0V875H125v125H750V875H875Zm-250,0H250V250H500V375H375V500H625V875ZM750,125V250H875V125H750Z" />
      <glyph unicode="R" glyph-name="R" horiz-adv-x="1000" d="M0,125v875H750V875H875V500H625V375H750V250H875V125H500V250H375V375H250V125H0ZM250,500H500V625H625V875H250V500Z" />
      <glyph unicode="S" glyph-name="S" horiz-adv-x="1000" d="M125,125V250H0V375H250V250H625V500H125V625H0V875H125v125H750V875H875V750H625V875H250V625H750V500H875V250H750V125H125Z" />
      <glyph unicode="T" glyph-name="T" horiz-adv-x="1000" d="M375,125V875H125v125H875V875H625V125H375Z" />
      <glyph unicode="U" glyph-name="U" horiz-adv-x="1000" d="M125,125V250H0v750H250V250H625v750H875V250H750V125H125Z" />
      <glyph unicode="V" glyph-name="V" horiz-adv-x="1000" d="M375,125V250H250V375H125V500H0v500H250V625H375V500H500V625H625v375H875V500H750V375H625V250H500V125H375Z" />
      <glyph unicode="W" glyph-name="W" horiz-adv-x="1000" d="M125,125V250H0v750H250V500H375v500H500V500H625v500H875V250H750V125H625V250H500V375H375V250H250V125H125Z" />
      <glyph unicode="X" glyph-name="X" horiz-adv-x="1000" d="M0,125V375H125V500H250V625H125V750H0v250H250V750H375V625H500V750H625v250H875V750H750V625H625V500H750V375H875V125H625V375H500V500H375V375H250V125H0Z" />
      <glyph unicode="Y" glyph-name="Y" horiz-adv-x="1000" d="M375,125V500H250V625H125v375H375V625H625v375H875V625H750V500H625V125H375Z" />
      <glyph unicode="Z" glyph-name="Z" horiz-adv-x="1000" d="M0,125V375H125V500H250V625H375V750H500V875H0v125H875V750H750V625H625V500H500V375H375V250H875V125H0Z" />
      <glyph unicode="[" glyph-name="bracketleft" horiz-adv-x="1000" d="M250,125v875H750V875H500V250H750V125H250Z" />
      <glyph unicode="\" glyph-name="backslash" horiz-adv-x="1000" d="M125,1000V875H0v125H125ZM250,875V750H125V875H250ZM375,750V625H250V750H375ZM500,625V500H375V625H500ZM625,500V375H500V500H625ZM750,375V250H625V375H750ZM875,250V125H750V250H875Z" />
      <glyph unicode="]" glyph-name="bracketright" horiz-adv-x="1000" d="M125,125V250H375V875H125v125H625V125H125Z" />
      <glyph unicode="^" glyph-name="asciicircum" horiz-adv-x="1000" d="M125,750V875H250v125H625V875H750V750H500V875H375V750H125Z" />
      <glyph unicode="_" glyph-name="underscore" horiz-adv-x="1000" d="M0,0V125H875V0H0Z" />
      <glyph unicode="`" glyph-name="grave" horiz-adv-x="1000" d="M500,1000V875H375v125H500ZM625,875V750H500V875H625Z" />
      <glyph unicode="a" glyph-name="a" horiz-adv-x="1000" d="M125,125V250H0V375H125V500H625V625H125V750H750V625H875V125H125ZM250,250H625V375H250V250Z" />
      <glyph unicode="b" glyph-name="b" horiz-adv-x="1000" d="M125,125V250H0v750H250V750H750V625H875V250H750V125H125ZM250,250H625V625H250V250Z" />
      <glyph unicode="c" glyph-name="c" horiz-adv-x="1000" d="M125,125V250H0V625H125V750H875V625H250V250H875V125H125Z" />
      <glyph unicode="d" glyph-name="d" horiz-adv-x="1000" d="M125,125V250H0V625H125V750H625v250H875V125H125ZM250,250H625V625H250V250Z" />
      <glyph unicode="e" glyph-name="e" horiz-adv-x="1000" d="M125,125V250H0V625H125V750H750V625H875V375H250V250H750V125H125ZM250,500H625V625H250V500Z" />
      <glyph unicode="f" glyph-name="f" horiz-adv-x="1000" d="M375,125V625H125V750H375V875H500v125H875V875H625V750H875V625H625V125H375Z" />
      <glyph unicode="g" glyph-name="g" horiz-adv-x="1000" d="M125,0V125H625V250H125V375H0V625H125V750H875V125H750V0H125ZM250,375H625V625H250V375Z" />
      <glyph unicode="h" glyph-name="h" horiz-adv-x="1000" d="M0,125v875H250V750H750V625H875V125H625V625H250V125H0Z" />
      <glyph unicode="i" glyph-name="i" horiz-adv-x="1000" d="M375,875v125H625V875H375ZM125,125V250H375V625H250V750H625V250H875V125H125Z" />
      <glyph unicode="j" glyph-name="j" horiz-adv-x="1000" d="M500,875v125H750V875H500ZM125,0V125H500V625H375V750H750V125H625V0H125Z" />
      <glyph unicode="k" glyph-name="k" horiz-adv-x="1000" d="M0,125v875H250V500H500V625H625V750H875V625H750V500H625V375H750V250H875V125H625V250H500V375H250V125H0Z" />
      <glyph unicode="l" glyph-name="l" horiz-adv-x="1000" d="M125,125V250H375V875H250v125H625V250H875V125H125Z" />
      <glyph unicode="m" glyph-name="m" horiz-adv-x="1000" d="M0,125V750H750V625H875V125H625V625H500V125H250V625H125V125H0Z" />
      <glyph unicode="n" glyph-name="n" horiz-adv-x="1000" d="M0,125V750H750V625H875V125H625V625H250V125H0Z" />
      <glyph unicode="o" glyph-name="o" horiz-adv-x="1000" d="M125,125V250H0V625H125V750H750V625H875V250H750V125H125ZM250,250H625V625H250V250Z" />
      <glyph unicode="p" glyph-name="p" horiz-adv-x="1000" d="M0,0V750H750V625H875V375H750V250H250V0H0ZM250,375H625V625H250V375Z" />
      <glyph unicode="q" glyph-name="q" horiz-adv-x="1000" d="M625,0V250H125V375H0V625H125V750H875V0H625ZM250,375H625V625H250V375Z" />
      <glyph unicode="r" glyph-name="r" horiz-adv-x="1000" d="M375,625H500V500H375V125H125V750H375V625ZM875,750V625H500V750H875Z" />
      <glyph unicode="s" glyph-name="s" horiz-adv-x="1000" d="M0,125V250H625V375H125V500H0V625H125V750H750V625H250V500H750V375H875V250H750V125H0Z" />
      <glyph unicode="t" glyph-name="t" horiz-adv-x="1000" d="M375,125V625H125V750H375v250H625V750H875V625H625V125H375Z" />
      <glyph unicode="u" glyph-name="u" horiz-adv-x="1000" d="M125,125V250H0V750H250V250H625V750H875V125H125Z" />
      <glyph unicode="v" glyph-name="v" horiz-adv-x="1000" d="M375,125V250H250V375H125V750H375V375H625V750H875V375H750V250H625V125H375Z" />
      <glyph unicode="w" glyph-name="w" horiz-adv-x="1000" d="M250,250H375V125H125V250H0V750H250V250ZM500,750V250H375V750H500Zm375,0V250H750V125H500V250H625V750H875Z" />
      <glyph unicode="x" glyph-name="x" horiz-adv-x="1000" d="M0,125V250H125V375H250V500H125V625H0V750H250V625H375V500H500V625H625V750H875V625H750V500H625V375H750V250H875V125H625V250H500V375H375V250H250V125H0Z" />
      <glyph unicode="y" glyph-name="y" horiz-adv-x="1000" d="M125,0V125H625V250H125V375H0V750H250V375H625V750H875V125H750V0H125Z" />
      <glyph unicode="z" glyph-name="z" horiz-adv-x="1000" d="M0,125V250H125V375H250V500H375V625H0V750H875V625H750V500H625V375H500V250H875V125H0Z" />
      <glyph unicode="{" glyph-name="braceleft" horiz-adv-x="1000" d="M500,125V250H375V500H250V625H375V875H500v125H750V875H625V625H500V500H625V250H750V125H500Z" />
      <glyph unicode="|" glyph-name="bar" horiz-adv-x="1000" d="M375,125v875H625V125H375Z" />
      <glyph unicode="}" glyph-name="braceright" horiz-adv-x="1000" d="M125,125V250H250V500H375V625H250V875H125v125H375V875H500V625H625V500H500V250H375V125H125Z" />
      <glyph unicode="~" glyph-name="asciitilde" horiz-adv-x="1000" d="M625,500H750V375H375V500H250V625H125V750H500V625H625V500ZM0,625H125V500H0V625Zm875,0V500H750V625H875Z" />
      <glyph unicode="&#xa0;" glyph-name="uni00A0" horiz-adv-x="1000" />
      <glyph unicode="&#xa1;" glyph-name="exclamdown" horiz-adv-x="1000" d="M375,875v125H625V875H375ZM250,125V500H375V750H625V125H250Z" />
      <glyph unicode="&#xa2;" glyph-name="cent" horiz-adv-x="1000" d="M375,125V250H125V375H0V750H125V875H375v125H500V875H750V750H875V625H625V750H500V375H625V500H875V375H750V250H500V125H375ZM250,375H375V750H250V375Z" />
      <glyph unicode="&#xa3;" glyph-name="sterling" horiz-adv-x="1000" d="M0,125V250H125V500H0V625H125V875H250v125H750V875H875V750H625V875H375V625H750V500H375V250H875V125H0Z" />
      <glyph unicode="&#xa4;" glyph-name="currency" horiz-adv-x="1000" d="M250,875V750H125V875H250ZM625,750H375V875H625V750ZM875,875V750H750V875H875ZM375,750V375H250V750H375Zm250,0H750V375H625V750ZM125,375H250V250H125V375Zm250,0H625V250H375V375ZM750,250V375H875V250H750Z" />
      <glyph unicode="&#xa5;" glyph-name="yen" horiz-adv-x="1000" d="M375,125V250H125V375H375V500H125V625H250V750H125v250H375V750H625v250H875V750H750V625H875V500H625V375H875V250H625V125H375Z" />
      <glyph unicode="&#xa6;" glyph-name="brokenbar" horiz-adv-x="1000" d="M375,625v375H625V625H375Zm0-500V500H625V125H375Z" />
      <glyph unicode="&#xa7;" glyph-name="section" horiz-adv-x="1000" d="M875,875V750H625V875H375V750H625V625H375V500H250V625H125V875H250v125H750V875H875ZM625,500V625H750V500H875V250H750V125H250V250H125V375H375V250H625V375H375V500H625Z" />
      <glyph unicode="&#xa8;" glyph-name="dieresis" horiz-adv-x="1000" d="M125,875v125H375V875H125Zm375,0v125H750V875H500Z" />
      <glyph unicode="&#xa9;" glyph-name="copyright" horiz-adv-x="1000" d="M750,875H250v125H750V875ZM250,750H125V875H250V750Zm500,0V875H875V750H750Zm-625,0V250H0V750H125Zm250,0H625V625H375V750Zm625,0V250H875V750h125ZM250,625H375V375H250V625ZM375,250V375H625V250H375Zm-125,0V125H125V250H250Zm500,0H875V125H750V250ZM250,125H750V0H250V125Z" />
      <glyph unicode="&#xaa;" glyph-name="ordfeminine" horiz-adv-x="1000" d="M250,500V625H125V750H250V875H125v125H625V875H750V500H250ZM375,625H500V750H375V625Z" />
      <glyph unicode="&#xab;" glyph-name="guillemotleft" horiz-adv-x="1000" d="M250,250V375H125V500H0V625H125V750H250V875H500V750H625V875H875V750H750V625H625V500H750V375H875V250H625V375H500V250H250ZM375,375H500V500H375V625H500V750H375V625H250V500H375V375Z" />
      <glyph unicode="&#xac;" glyph-name="logicalnot" horiz-adv-x="1000" d="M625,375V625H125V750H875V375H625Z" />
      <glyph unicode="&#xad;" glyph-name="uni00AD" horiz-adv-x="1000" d="M125,500V625H875V500H125Z" />
      <glyph unicode="&#xae;" glyph-name="registered" horiz-adv-x="1000" d="M750,875H250v125H750V875ZM250,750H125V875H250V750Zm500,0V875H875V750H750Zm-625,0V250H0V750H125ZM250,250V750H625V625H375V500H625V375H375V250H250Zm750,500V250H875V750h125ZM625,500V625H750V500H625Zm0-250V375H750V250H625Zm-375,0V125H125V250H250Zm500,0H875V125H750V250ZM250,125H750V0H250V125Z" />
      <glyph unicode="&#xaf;" glyph-name="macron" horiz-adv-x="1000" d="M125,875v125H750V875H125Z" />
      <glyph unicode="&#xb0;" glyph-name="degree" horiz-adv-x="1000" d="M500,875H375v125H500V875Zm-125,0V750H250V875H375Zm250,0V750H500V875H625ZM375,750H500V625H375V750Z" />
      <glyph unicode="&#xb1;" glyph-name="plusminus" horiz-adv-x="1000" d="M375,375V625H125V750H375v250H625V750H875V625H625V375H375ZM125,125V250H875V125H125Z" />
      <glyph unicode="&#xb2;" glyph-name="uni00B2" horiz-adv-x="1000" d="M250,500V625H375V750H500V875H250v125H625V875H750V750H625V625H750V500H250Z" />
      <glyph unicode="&#xb3;" glyph-name="uni00B3" horiz-adv-x="1000" d="M250,500V625H500V750H375V875H250v125H750V875H625V750H750V625H625V500H250Z" />
      <glyph unicode="&#xb4;" glyph-name="acute" horiz-adv-x="1000" d="M625,1000V875H500v125H625ZM375,875H500V750H375V875Z" />
      <glyph unicode="&#xb5;" glyph-name="uni00B5" horiz-adv-x="1000" d="M250,250H500V125H250V0H0V750H250V250Zm625,0V125H625V250H500V750H750V250H875Z" />
      <glyph unicode="&#xb6;" glyph-name="paragraph" horiz-adv-x="1000" d="M500,125V375H250V500H125V875H250v125H875V125H750V375H625V125H500ZM375,500H500V875H375V750H250V625H375V500Zm250,0H750V875H625V500Z" />
      <glyph unicode="&#xb7;" glyph-name="periodcentered" horiz-adv-x="1000" d="M250,375V625H500V375H250Z" />
      <glyph unicode="&#xb8;" glyph-name="cedilla" horiz-adv-x="1000" d="M625,250V125H500V250H625ZM250,125H500V0H250V125Z" />
      <glyph unicode="&#xb9;" glyph-name="uni00B9" horiz-adv-x="1000" d="M250,500V625H375V750H250V875H375v125H625V625H750V500H250Z" />
      <glyph unicode="&#xba;" glyph-name="ordmasculine" horiz-adv-x="1000" d="M250,500V625H125V875H250v125H625V875H750V625H625V500H250ZM375,625H500V875H375V625Z" />
      <glyph unicode="&#xbb;" glyph-name="guillemotright" horiz-adv-x="1000" d="M0,250V375H125V500H250V625H125V750H0V875H250V750H375V875H625V750H750V625H875V500H750V375H625V250H375V375H250V250H0ZM375,375H500V500H625V625H500V750H375V625H500V500H375V375Z" />
      <glyph unicode="&#xbc;" glyph-name="onequarter" horiz-adv-x="1000" d="M250,1000V500H125V750H0V875H125v125H250Zm625,0V875H750v125H875ZM625,875H750V750H625V875ZM500,750H625V625H500V750ZM375,625H500V500H375V625Zm375,0H875V125H750V250H500V375H625V500H750V625ZM250,500H375V375H250V500ZM125,375H250V250H125V375ZM0,250H125V125H0V250Z" />
      <glyph unicode="&#xbd;" glyph-name="onehalf" horiz-adv-x="1000" d="M250,1000V500H125V750H0V875H125v125H250Zm625,0V875H750v125H875ZM625,875H750V750H625V875ZM500,750H625V625H500V750ZM375,625H500V500H375V625ZM625,500V625H875V375H750V500H625Zm-375,0H375V375H250V500ZM125,375H250V250H125V375Zm500,0H750V250H875V125H500V250H625V375ZM0,250H125V125H0V250Z" />
      <glyph unicode="&#xbe;" glyph-name="threequarters" horiz-adv-x="1000" d="M250,875V750H125V875H0v125H375V875H250Zm625,125V875H750v125H875ZM625,875H750V750H625V875ZM375,625H250V750H375V625ZM500,750H625V625H500V750ZM250,625V500H0V625H250Zm125,0H500V500H375V625Zm375,0H875V125H750V250H500V375H625V500H750V625ZM250,500H375V375H250V500ZM125,375H250V250H125V375ZM0,250H125V125H0V250Z" />
      <glyph unicode="&#xbf;" glyph-name="questiondown" horiz-adv-x="1000" d="M250,875v125H625V875H250ZM125,125V250H0V500H125V625H250V750H625V625H375V500H250V375H625V500H875V250H750V125H125Z" />
      <glyph unicode="&#xc0;" glyph-name="Agrave" horiz-adv-x="1000" d="M375,1000V875H250v125H375ZM875,500V125H625V250H250V125H0V500H125V625H250V750H375V875H500V750H625V625H750V500H875Zm-250,0H500V625H375V500H250V375H625V500Z" />
      <glyph unicode="&#xc1;" glyph-name="Aacute" horiz-adv-x="1000" d="M625,875H500v125H625V875ZM875,500V125H625V250H250V125H0V500H125V625H250V750H375V875H500V750H625V625H750V500H875Zm-250,0H500V625H375V500H250V375H625V500Z" />
      <glyph unicode="&#xc2;" glyph-name="Acircumflex" horiz-adv-x="1000" d="M0,125V500H125V625H250V750H125V875H250v125H625V875H750V750H625V625H750V500H875V125H625V250H250V125H0ZM375,750H500V875H375V750ZM250,375H625V500H500V625H375V500H250V375Z" />
      <glyph unicode="&#xc3;" glyph-name="Atilde" horiz-adv-x="1000" d="M875,500V125H625V250H250V125H0V500H125V625H250V750H375V875H250v125H500V875H625V625H750V500H875ZM750,875H625v125H750V875Zm-500,0V750H125V875H250ZM625,500H500V625H375V500H250V375H625V500Z" />
      <glyph unicode="&#xc4;" glyph-name="Adieresis" horiz-adv-x="1000" d="M125,875v125H375V875H125Zm375,0v125H750V875H500ZM0,125V500H125V625H250V750H625V625H750V500H875V125H625V250H250V125H0ZM250,375H625V500H500V625H375V500H250V375Z" />
      <glyph unicode="&#xc5;" glyph-name="Aring" horiz-adv-x="1000" d="M0,125V500H125V625H250V875H375v125H500V875H625V625H750V500H875V125H625V250H250V125H0ZM375,750H500V875H375V750ZM250,375H625V500H500V625H375V500H250V375Z" />
      <glyph unicode="&#xc6;" glyph-name="AE" horiz-adv-x="1000" d="M0,125V750H125V875H250v125H875V875H625V625H875V500H625V250H875V125H375V375H250V125H0ZM250,500H375V750H250V500Z" />
      <glyph unicode="&#xc7;" glyph-name="Ccedilla" horiz-adv-x="1000" d="M875,875V750H625V875H375V750H250V500H375V375H625V500H875V375H750V250H625V125H500V250H250V375H125V500H0V750H125V875H250v125H750V875H875ZM250,125H500V0H250V125Z" />
      <glyph unicode="&#xc8;" glyph-name="Egrave" horiz-adv-x="1000" d="M375,1000V875H250v125H375ZM875,750V625H250V500H750V375H250V250H875V125H0V750H375V875H500V750H875Z" />
      <glyph unicode="&#xc9;" glyph-name="Eacute" horiz-adv-x="1000" d="M625,875H500v125H625V875ZM875,750V625H250V500H750V375H250V250H875V125H0V750H375V875H500V750H875Z" />
      <glyph unicode="&#xca;" glyph-name="Ecircumflex" horiz-adv-x="1000" d="M0,125V750H125V875H250v125H625V875H750V750H875V625H250V500H750V375H250V250H875V125H0ZM375,750H500V875H375V750Z" />
      <glyph unicode="&#xcb;" glyph-name="Edieresis" horiz-adv-x="1000" d="M125,875v125H375V875H125Zm375,0v125H750V875H500ZM0,125V750H875V625H250V500H750V375H250V250H875V125H0Z" />
      <glyph unicode="&#xcc;" glyph-name="Igrave" horiz-adv-x="1000" d="M500,1000V875H375v125H500ZM875,750V625H625V250H875V125H125V250H375V625H125V750H500V875H625V750H875Z" />
      <glyph unicode="&#xcd;" glyph-name="Iacute" horiz-adv-x="1000" d="M625,875H500v125H625V875ZM875,750V625H625V250H875V125H125V250H375V625H125V750H375V875H500V750H875Z" />
      <glyph unicode="&#xce;" glyph-name="Icircumflex" horiz-adv-x="1000" d="M125,125V250H375V625H125V750H250V875H375v125H625V875H750V750H875V625H625V250H875V125H125Z" />
      <glyph unicode="&#xcf;" glyph-name="Idieresis" horiz-adv-x="1000" d="M125,875v125H375V875H125Zm500,0v125H875V875H625ZM125,125V250H375V625H125V750H875V625H625V250H875V125H125Z" />
      <glyph unicode="&#xd0;" glyph-name="Eth" horiz-adv-x="1000" d="M125,125V500H0V625H125v375H625V875H750V750H875V375H750V250H625V125H125ZM375,250H500V375H625V750H500V875H375V625H500V500H375V250Z" />
      <glyph unicode="&#xd1;" glyph-name="Ntilde" horiz-adv-x="1000" d="M375,875H250v125H500V875H625V750H375V875Zm375,0H625v125H750V875ZM875,750V125H500V250H375V375H250V125H0V750H125V875H250V750H375V625H500V500H625V750H875Z" />
      <glyph unicode="&#xd2;" glyph-name="Ograve" horiz-adv-x="1000" d="M375,1000V875H250v125H375ZM875,625V250H750V125H125V250H0V625H125V750H375V875H500V750H750V625H875Zm-250,0H250V250H625V625Z" />
      <glyph unicode="&#xd3;" glyph-name="Oacute" horiz-adv-x="1000" d="M625,875H500v125H625V875ZM875,625V250H750V125H125V250H0V625H125V750H375V875H500V750H750V625H875Zm-250,0H250V250H625V625Z" />
      <glyph unicode="&#xd4;" glyph-name="Ocircumflex" horiz-adv-x="1000" d="M125,125V250H0V625H125V875H250v125H625V875H750V625H875V250H750V125H125ZM375,750H500V875H375V750ZM250,250H625V625H250V250Z" />
      <glyph unicode="&#xd5;" glyph-name="Otilde" horiz-adv-x="1000" d="M125,125V250H0V625H125V875H250v125H500V875H625v125H750V875H625V750H750V625H875V250H750V125H125ZM250,750H375V875H250V750Zm0-500H625V625H250V250Z" />
      <glyph unicode="&#xd6;" glyph-name="Odieresis" horiz-adv-x="1000" d="M125,875v125H375V875H125Zm375,0v125H750V875H500ZM125,125V250H0V625H125V750H750V625H875V250H750V125H125ZM250,250H625V625H250V250Z" />
      <glyph unicode="&#xd7;" glyph-name="multiply" horiz-adv-x="1000" d="M250,875V750H125V875H250Zm500,0V750H625V875H750ZM375,750V625H250V750H375Zm125,0H625V625H500V750ZM375,625H500V500H375V625ZM250,500H375V375H250V500ZM500,375V500H625V375H500Zm-375,0H250V250H125V375ZM625,250V375H750V250H625Z" />
      <glyph unicode="&#xd8;" glyph-name="Oslash" horiz-adv-x="1000" d="M125,125V250H0V875H125v125H750V875H875V250H750V125H125ZM250,250H625V625H500V750H625V875H250V500H375V375H250V250ZM375,500V625H500V500H375Z" />
      <glyph unicode="&#xd9;" glyph-name="Ugrave" horiz-adv-x="1000" d="M375,875H250v125H375V875Zm0-125V875H500V750H375Zm500,0V250H750V125H125V250H0V750H250V250H625V750H875Z" />
      <glyph unicode="&#xda;" glyph-name="Uacute" horiz-adv-x="1000" d="M625,875H500v125H625V875ZM500,750H375V875H500V750Zm375,0V250H750V125H125V250H0V750H250V250H625V750H875Z" />
      <glyph unicode="&#xdb;" glyph-name="Ucircumflex" horiz-adv-x="1000" d="M125,750V875H250v125H625V875H750V750H500V875H375V750H125Zm0-625V250H0V625H250V250H625V625H875V250H750V125H125Z" />
      <glyph unicode="&#xdc;" glyph-name="Udieresis" horiz-adv-x="1000" d="M125,875v125H375V875H125Zm375,0v125H750V875H500ZM125,125V250H0V750H250V250H625V750H875V250H750V125H125Z" />
      <glyph unicode="&#xdd;" glyph-name="Yacute" horiz-adv-x="1000" d="M625,875H500v125H625V875ZM500,750H375V875H500V750Zm375,0V500H750V375H625V125H375V375H250V500H125V750H375V500H625V750H875Z" />
      <glyph unicode="&#xde;" glyph-name="Thorn" horiz-adv-x="1000" d="M0,125v875H250V875H750V750H875V375H750V250H250V125H0ZM250,375H625V750H250V375Z" />
      <glyph unicode="&#xdf;" glyph-name="germandbls" horiz-adv-x="1000" d="M875,875V625H750V500H875V250H750V125H500V250H625V500H500V625H625V875H375V375H500V250H375V125H125V875H250v125H750V875H875Z" />
      <glyph unicode="&#xe0;" glyph-name="agrave" horiz-adv-x="1000" d="M375,1000V875H250v125H375ZM875,625V125H125V250H0V375H125V500H625V625H125V750H375V875H500V750H750V625H875ZM625,375H250V250H625V375Z" />
      <glyph unicode="&#xe1;" glyph-name="aacute" horiz-adv-x="1000" d="M625,875H500v125H625V875ZM875,625V125H125V250H0V375H125V500H625V625H125V750H375V875H500V750H750V625H875ZM625,375H250V250H625V375Z" />
      <glyph unicode="&#xe2;" glyph-name="acircumflex" horiz-adv-x="1000" d="M125,125V250H0V375H125V500H625V625H125V875H250v125H625V875H750V625H875V125H125ZM375,750H500V875H375V750ZM250,250H625V375H250V250Z" />
      <glyph unicode="&#xe3;" glyph-name="atilde" horiz-adv-x="1000" d="M125,125V250H0V375H125V500H625V625H125V875H250v125H500V875H625v125H750V875H625V750H750V625H875V125H125ZM250,750H375V875H250V750Zm0-500H625V375H250V250Z" />
      <glyph unicode="&#xe4;" glyph-name="adieresis" horiz-adv-x="1000" d="M125,875v125H375V875H125Zm375,0v125H750V875H500ZM125,125V250H0V375H125V500H625V625H125V750H750V625H875V125H125ZM250,250H625V375H250V250Z" />
      <glyph unicode="&#xe5;" glyph-name="aring" horiz-adv-x="1000" d="M125,125V250H0V375H125V500H625V625H125V750H250V875H375v125H500V875H625V750H750V625H875V125H125ZM375,750H500V875H375V750ZM250,250H625V375H250V250Z" />
      <glyph unicode="&#xe6;" glyph-name="ae" horiz-adv-x="1000" d="M125,125V250H0V375H125V500H375V625H125V750H750V625H875V375H500V250H750V125H125ZM500,500H625V625H500V500ZM250,250H375V375H250V250Z" />
      <glyph unicode="&#xe7;" glyph-name="ccedilla" horiz-adv-x="1000" d="M875,750V625H250V375H875V250H625V125H500V250H125V375H0V625H125V750H875ZM250,125H500V0H250V125Z" />
      <glyph unicode="&#xe8;" glyph-name="egrave" horiz-adv-x="1000" d="M375,1000V875H250v125H375ZM875,625V375H250V250H750V125H125V250H0V625H125V750H375V875H500V750H750V625H875Zm-250,0H250V500H625V625Z" />
      <glyph unicode="&#xe9;" glyph-name="eacute" horiz-adv-x="1000" d="M625,875H500v125H625V875ZM875,625V375H250V250H750V125H125V250H0V625H125V750H375V875H500V750H750V625H875Zm-250,0H250V500H625V625Z" />
      <glyph unicode="&#xea;" glyph-name="ecircumflex" horiz-adv-x="1000" d="M125,125V250H0V625H125V875H250v125H625V875H750V625H875V375H250V250H750V125H125ZM375,750H500V875H375V750ZM250,500H625V625H250V500Z" />
      <glyph unicode="&#xeb;" glyph-name="edieresis" horiz-adv-x="1000" d="M125,875v125H375V875H125Zm375,0v125H750V875H500ZM125,125V250H0V625H125V750H750V625H875V375H250V250H750V125H125ZM250,500H625V625H250V500Z" />
      <glyph unicode="&#xec;" glyph-name="igrave" horiz-adv-x="1000" d="M375,875H250v125H375V875Zm0-125V875H500V750H375ZM875,250V125H125V250H375V500H250V625H625V250H875Z" />
      <glyph unicode="&#xed;" glyph-name="iacute" horiz-adv-x="1000" d="M625,875H500v125H625V875ZM500,750H375V875H500V750ZM875,250V125H125V250H375V500H250V625H625V250H875Z" />
      <glyph unicode="&#xee;" glyph-name="icircumflex" horiz-adv-x="1000" d="M125,750V875H250v125H625V875H750V750H500V875H375V750H125Zm0-625V250H375V500H250V625H625V250H875V125H125Z" />
      <glyph unicode="&#xef;" glyph-name="idieresis" horiz-adv-x="1000" d="M125,875v125H375V875H125Zm375,0v125H750V875H500ZM125,125V250H375V625H250V750H625V250H875V125H125Z" />
      <glyph unicode="&#xf0;" glyph-name="eth" horiz-adv-x="1000" d="M875,500V250H750V125H125V250H0V500H125V625H375V750H125v250H375V875H625V625H750V500H875ZM750,875H625v125H750V875ZM125,750V625H0V750H125ZM625,500H250V250H625V500Z" />
      <glyph unicode="&#xf1;" glyph-name="ntilde" horiz-adv-x="1000" d="M0,125V750H125V875H250v125H500V875H625v125H750V875H625V750H750V625H875V125H625V625H250V125H0ZM250,750H375V875H250V750Z" />
      <glyph unicode="&#xf2;" glyph-name="ograve" horiz-adv-x="1000" d="M375,1000V875H250v125H375ZM875,625V250H750V125H125V250H0V625H125V750H375V875H500V750H750V625H875Zm-250,0H250V250H625V625Z" />
      <glyph unicode="&#xf3;" glyph-name="oacute" horiz-adv-x="1000" d="M625,875H500v125H625V875ZM875,625V250H750V125H125V250H0V625H125V750H375V875H500V750H750V625H875Zm-250,0H250V250H625V625Z" />
      <glyph unicode="&#xf4;" glyph-name="ocircumflex" horiz-adv-x="1000" d="M125,125V250H0V625H125V875H250v125H625V875H750V625H875V250H750V125H125ZM375,750H500V875H375V750ZM250,250H625V625H250V250Z" />
      <glyph unicode="&#xf5;" glyph-name="otilde" horiz-adv-x="1000" d="M125,125V250H0V625H125V875H250v125H500V875H625v125H750V875H625V750H750V625H875V250H750V125H125ZM250,750H375V875H250V750Zm0-500H625V625H250V250Z" />
      <glyph unicode="&#xf6;" glyph-name="odieresis" horiz-adv-x="1000" d="M125,875v125H375V875H125Zm375,0v125H750V875H500ZM125,125V250H0V625H125V750H750V625H875V250H750V125H125ZM250,250H625V625H250V250Z" />
      <glyph unicode="&#xf7;" glyph-name="divide" horiz-adv-x="1000" d="M375,750V875H625V750H375ZM125,500V625H875V500H125ZM375,250V375H625V250H375Z" />
      <glyph unicode="&#xf8;" glyph-name="oslash" horiz-adv-x="1000" d="M125,125V250H0V625H125V750H750V625H875V250H750V125H125ZM375,250H625V500H500V625H250V375H375V250Zm0,125V500H500V375H375Z" />
      <glyph unicode="&#xf9;" glyph-name="ugrave" horiz-adv-x="1000" d="M375,875H250v125H375V875Zm0-125V875H500V750H375Zm500,0V125H125V250H0V750H250V250H625V750H875Z" />
      <glyph unicode="&#xfa;" glyph-name="uacute" horiz-adv-x="1000" d="M625,875H500v125H625V875ZM500,750H375V875H500V750Zm375,0V125H125V250H0V750H250V250H625V750H875Z" />
      <glyph unicode="&#xfb;" glyph-name="ucircumflex" horiz-adv-x="1000" d="M125,750V875H250v125H625V875H750V750H500V875H375V750H125Zm0-625V250H0V625H250V250H625V625H875V125H125Z" />
      <glyph unicode="&#xfc;" glyph-name="udieresis" horiz-adv-x="1000" d="M125,875v125H375V875H125Zm375,0v125H750V875H500ZM125,125V250H0V750H250V250H625V750H875V125H125Z" />
      <glyph unicode="&#xfd;" glyph-name="yacute" horiz-adv-x="1000" d="M625,875H500v125H625V875ZM500,750H375V875H500V750Zm375,0V125H750V0H125V125H625V250H125V375H0V750H250V375H625V750H875Z" />
      <glyph unicode="&#xfe;" glyph-name="thorn" horiz-adv-x="1000" d="M0,0V1000H250V750H750V625H875V375H750V250H250V0H0ZM250,375H625V625H250V375Z" />
      <glyph unicode="&#xff;" glyph-name="ydieresis" horiz-adv-x="1000" d="M125,875v125H375V875H125Zm375,0v125H750V875H500ZM125,0V125H625V250H125V375H0V750H250V375H625V750H875V125H750V0H125Z" />
      <glyph unicode="&#x2013;" glyph-name="endash" horiz-adv-x="1000" d="M0,500V625H875V500H0Z" />
      <glyph unicode="&#x2014;" glyph-name="emdash" horiz-adv-x="1000" d="M0,500V625H1000V500H0Z" />
      <glyph unicode="&#x2018;" glyph-name="quoteleft" horiz-adv-x="1000" d="M250,625V875H375v125H625V875H500V625H250Z" />
      <glyph unicode="&#x2019;" glyph-name="quoteright" horiz-adv-x="1000" d="M250,625V750H375v250H625V750H500V625H250Z" />
      <glyph unicode="&#x201a;" glyph-name="quotesinglbase" horiz-adv-x="1000" d="M250,125V250H375V500H625V250H500V125H250Z" />
      <glyph unicode="&#x201c;" glyph-name="quotedblleft" horiz-adv-x="1000" d="M500,1000V875H375V625H125V875H250v125H500Zm375,0V875H750V625H500V875H625v125H875Z" />
      <glyph unicode="&#x201d;" glyph-name="quotedblright" horiz-adv-x="1000" d="M500,1000V750H375V625H125V750H250v250H500Zm375,0V750H750V625H500V750H625v250H875Z" />
      <glyph unicode="&#x201e;" glyph-name="quotedblbase" horiz-adv-x="1000" d="M375,500V250H250V125H0V250H125V500H375Zm375,0V250H625V125H375V250H500V500H750Z" />
      <glyph unicode="&#x2022;" glyph-name="bullet" horiz-adv-x="1000" d="M375,250V375H250V625H375V750H625V625H750V375H625V250H375Z" />
      <glyph unicode="&#x2039;" glyph-name="guilsinglleft" horiz-adv-x="1000" d="M500,250V375H375V500H250V625H375V750H500V875H750V750H625V625H500V500H625V375H750V250H500Z" />
      <glyph unicode="&#x203a;" glyph-name="guilsinglright" horiz-adv-x="1000" d="M125,250V375H250V500H375V625H250V750H125V875H375V750H500V625H625V500H500V375H375V250H125Z" />
    </font>
</defs>
</svg>
